fastshare
X-Men - And the Wolverine Collection (2000-2014)
Vypnout statistiky
KATEGORIEPOSLEDNÍ PŘÍSPĚVKYPOSLEDNÍ OZNÁMENÍSTATISTIKY UŽIVATELE
Nick: Anonymous
Příspěvků: 3361
Hodnost: Warman
Varování: 0
---
Právě je 18 říj 2018, 17:18





Všechny časy jsou v UTC + 1 hodina


Pravidla fóra







Odeslat nové téma Odpovědět na téma  [ Příspěvků: 2 ] 
 X-Men - And the Wolverine Collection (2000-2014) 
Autor Zpráva
Captain
Captain
Uživatelský avatar

Registrován: 28 črc 2009, 12:41
Příspěvky: 254
Příspěvek X-Men - And the Wolverine Collection (2000-2014)

X-Men - And the Wolverine Collection (2000-2014)

X-Men - And the Wolverine Collection (2000-2014) - Anub1ss

X-Men - And the Wolverine Collection je kolekce všech dílu X-Men 1-6 + Filmu Wolverine (2013)
Jedná se o muj Blu-Ray rip ze zmíněné kolekce filmu...

---------------------------------------------------------------------------------------------------------------------
1.) X-Men 1 (2000)

Akční / Dobrodružný / Sci-Fi / Thriller

USA, 2000, 104 min
Režie: Bryan Singer
Scénář: David Hayter
Kamera: Newton Thomas Sigel
Hudba: Michael Kamen

Hrají:
Hugh Jackman, Patrick Stewart, Ian McKellen, Famke Janssen, James Marsden, Halle Berry, Anna Paquin, Ray Park, Rebecca Romijn, Bruce Davison, Shawn Roberts, Matt Weinberg, Stan Lee, Gary Goddard, Shawn Ashmore, Tyler Mane, Daniel Magder, Jay Yoo, David Hayter, D. B. Sweeney, Ryan Fleming, Adam Robitel, Brian Peck, George Buza



Kvalita Blu-ray ripu:

1920:820 H.264
Codec: H.264 - MPEG-4 AVC
Formát: AVI
Celkový BitRate: 6303 Kbps
Video BitRate: 5663 Kbps
23-25 fps, 48 Khz
4,47GB
Audio: AC3 5.1 640 kbps (48000Hz) CZ

Download Fastshare:

---------------------------------------------------------------------------------------------------------------------

2.) X-Men 2 (2003)

Akční / Dobrodružný / Sci-Fi / Thriller

Kanada / USA, 2003, 128 min

Režie: Bryan Singer
Scénář: Michael Dougherty, David Hayter
Kamera: Newton Thomas Sigel
Hudba: John Ottman

Hrají:
Patrick Stewart, Hugh Jackman, Ian McKellen, Halle Berry, Famke Janssen, James Marsden, Rebecca Romijn, Anna Paquin, Alan Cumming, Brian Cox, Bruce Davison, Aaron Stanford, Kelly Hu, Katie Stuart, Chiara Zanni, Brad Loree, Steve Bacic, Aaron Douglas, David Kaye, Newton Thomas Sigel, Shawn Ashmore, Daniel Cudmore, Nolan Gerard Funk, Peter Wingfield, Ty Olsson, Layke Anderson, Roger R. Cross, James Kirk, Emily Hirst, Valerie Tian, Aaron Pearl, Jade Ramsey, Brian Peck, Colin Lawrence, Cotter Smith, Kendall Cross, Devin Douglas Drewitz

Citace:
http://www.csfd.cz/film/40326-x-men-2/


Kvalita Blu-ray ripu:

1920:820 H.264
Codec: H.264 - MPEG-4 AVC
Formát: AVI
Celkový BitRate: 6265 Kbps
Video BitRate: 5625 Kbps
23-25 fps, 48 Khz
5,78 GB
Audio: AC3 (6CH) 5.1 640 kbps (48000Hz) CZ

Download Fastshare:

--------------------------------------------------------------------------------------------------------------------

3.) X-Men 3 Poslední vzdor (2006)

Akční / Dobrodružný / Sci-Fi / Thriller

Kanada / USA / Velká Británie, 2006, 100 min

Režie: Brett Ratner
Scénář: Simon Kinberg, Zak Penn
Kamera: Dante Spinotti
Hudba: John Powell

Hrají:
Hugh Jackman, Halle Berry, Ian McKellen, Patrick Stewart, Famke Janssen, Anna Paquin, Kelsey Grammer, James Marsden, Rebecca Romijn, Shawn Ashmore, Aaron Stanford, Vinnie Jones, Ellen Page, Daniel Cudmore, Ben Foster, Michael Murphy, Dania Ramirez, Shohreh Aghdashloo, Josef Sommer, Bill Duke, Eric Dane, Haley Ramm, Stan Lee, Cayden Boyd, Anthony Heald, Cameron Bright, Julian Richings, Mei Melançon, Ken Leung, Makenzie Vega, Ron James, R. Lee Ermey, Chelah Horsdal, Olivia Williams, Mark Helfrich, John Pyper-Ferguson, Aaron Pearl, Alex Ferris, Omahyra, Tanya Newbould, Brenna O'Brien, Brad Kelly, Monique Ganderton

Citace:
http://www.csfd.cz/film/194903-x-men-posledni-vzdor/


Kvalita Blu-ray ripu:

1920:820 H.264
Codec: H.264 - MPEG-4 AVC
Formát: AVI
Celkový BitRate: 6265 Kbps
Video BitRate: 5625 Kbps
23-25 fps, 48 Khz
4,53 GB
Audio: AC3 (6CH) 5.1 640 kbps (48000Hz) CZ

Download Fastshare:

--------------------------------------------------------------------------------------------------------------------

4.) X-Men 4 Origins-Wolverine (2009)

Akční / Dobrodružný / Sci-Fi / Thriller

USA, 2009, 103 min

Režie: Gavin Hood
Scénář: David Benioff, Skip Woods
Kamera: Donald McAlpine
Hudba: Harry Gregson-Williams

Hrají:
Hugh Jackman, Liev Schreiber, Danny Huston, Lynn Collins, Daniel Henney, Ryan Reynolds, Taylor Kitsch, Will I Am, Dominic Monaghan, Kevin Durand, Tahyna Tozzi, Scott Adkins, Alice Parkinson, Adelaide Clemens, Panou, Patrick Stewart, Tim Pocock, Troye Sivan, Hakeem Kae-Kazim, Peter O'Brien, Myles Pollard, Don Battée, Johnson Phan, Aaron Jeffery, Alexandra Davies, Elizabeth Thai, Socratis Otto, Alison Araya

Citace:
http://www.csfd.cz/film/224880-x-men-origins-wolverine/


Kvalita Blu-ray ripu:

1920:820 H.264
Codec: H.264 - MPEG-4 AVC
Formát: AVI
Celkový BitRate: 6303 Kbps
Video BitRate: 5663 Kbps
23-25 fps, 48 Khz
4,71 GB
Audio: AC3 (6CH) 5.1 640 kbps (48000Hz) CZ

Download Fastshare:

--------------------------------------------------------------------------------------------------------------------

5.) X-Men 5 První třída (2011)

Akční / Dobrodružný / Sci-Fi / Thriller

USA, 2011, 126 min

Režie: Matthew Vaughn
Scénář: Ashley Miller, Zack Stentz, Jane Goldman, Matthew Vaughn
Kamera: John Mathieson
Hudba: Henry Jackman, Jo Blankenburg

Hrají:
James McAvoy, Michael Fassbender, Jennifer Lawrence, Kevin Bacon, January Jones, Nicholas Hoult, Rose Byrne, Lucas Till, Edi Gathegi, Jason Flemyng, Morgan Lily, Zoë Kravitz, Caleb Landry Jones, Oliver Platt, Bill Milner, Laurence Belcher, Matt Craven, Álex González, Hugh Jackman, Rebecca Romijn, Corey Johnson, Glenn Morshower, James Remar, Ludger Pistor, Michael Ironside, Rade Šerbedžija, Ray Wise, Olek Krupa, David Agranov, Annabelle Wallis, Brendan Fehr, Sasha Pieterse, Jason Beghe, Tony Curran, Randall Batinkoff, Carlos Besse Peres, Arthur Darbinyan, David Joseph Martinez, Demetri Goritsas, Neil Fingleton, Gene Farber, Andy Callaghan, Andrei Zayats, Michael Medeiros

Citace:
http://www.csfd.cz/film/251188-x-men-prvni-trida/


Kvalita Blu-ray ripu:

1920:820 H.264
Codec: H.264 - MPEG-4 AVC
Formát: AVI
Celkový BitRate: 6303 Kbps
Video BitRate: 5663 Kbps
23-25 fps, 48 Khz
5,74 GB
Audio: AC3 (6CH) 5.1 640 kbps (48000Hz) CZ / Forced Titulky Externě

Download Fastshare:


Forced titulky k Německým Ruským a Francouzským dialogům

-------------------------------------------------------------------------------------------------------------------

6.) X-Men 6 Budoucí minulost (2014)

Akční / Fantasy / Sci-Fi / Dobrodružný

USA, 2014, 132 min
Režie: Bryan Singer
Scénář: Jane Goldman, Simon Kinberg, Matthew Vaughn
Kamera: Newton Thomas Sigel
Hudba: John Ottman

Hrají:
Hugh Jackman, Michael Fassbender, James McAvoy, Ian McKellen, Jennifer Lawrence, Patrick Stewart, Nicholas Hoult, Ellen Page, Peter Dinklage, Halle Berry, Shawn Ashmore, Lucas Till, Daniel Cudmore, Bingbing Fan, Booboo Stewart, Omar Sy, Evan Peters, Adan Canto, Larry Day, Evan Jonigkeit, Jaa Smith-Johnson, Amelia Giovanni, Gregg Lowe, Josh Helman, Thai-Hoa Le, Jason Deline, Robert Crooks, Anna Paquin, Famke Janssen, James Marsden, Morgan Lily, Susanna Fournier, Karine Vanasse, Stephan Parent

Citace:
http://www.csfd.cz/film/317342-x-men-budouci-minulost/


Kvalita Blu-ray ripu:

1920:820 H.264
Codec: H.264 - MPEG-4 AVC
Formát: AVI
Celkový BitRate: 6265 Kbps
Video BitRate: 5625 Kbps
23-25 fps, 48 Khz
5,74 GB
Audio: AC3 (6CH) 5.1 640 kbps (48000Hz) CZ / Forced Titulky Externě

Download Fastshare:


Forced titulky k Vietnamským, Francouzským dialogům

--------------------------------------------------------------------------------------------------------------------

7.) Wolverine (2013)

Sci-Fi / Akční / Dobrodružný / Fantasy

USA / Austrálie, 2013, 126 min (SE: 132 min)

Režie: James Mangold
Scénář: Mark Bomback, Scott Frank
Kamera: Ross Emery
Hudba: Marco Beltrami

Hrají:
Hugh Jackman, Tao Okamoto, Rila Fukushima, Hirojuki Sanada, Světlana Chodčenkova, Brian Tee, Will Yun Lee, Famke Janssen, James Fraser, Ian McKellen, Patrick Stewart, Luke Webb, Monique Ganderton

Citace:
http://www.csfd.cz/film/265275-wolverine/


Kvalita Blu-ray ripu:

1920:820 H.264
Codec: H.264 - MPEG-4 AVC
Formát: AVI
Celkový BitRate: 6265 Kbps
Video BitRate: 5625 Kbps
23-25 fps, 48 Khz
5,39 GB
Audio: AC3 (6CH) 5.1 640 kbps (48000Hz) CZ

Download Fastshare:

_________________
OS: Windows 10 PRO x64
CPU: AMD FX 8350 Black (OC: 4.8 GHz)
MB: Asus M5A97 PRO
RAM: ADATA XPG V1.0 Red 16GB (4x4GB) DDR3 2133
GPU: MSI Radeon RX 480 GAMING X 8GB
Zdroj: Forton AurumS 600 WATT
Disk: Kingston HyperX Savage - 240GB + TOSHIBA - X300 - 4TB 7200rpm 128MB buffer


29 pro 2014, 23:21
Profil
Colonel 2 nd class
Colonel 2 nd class

Registrován: 10 čer 2018, 20:41
Příspěvky: 426
Příspěvek Re: X-Men - And the Wolverine Collection (2000-2017)

X-Men - And the Wolverine Collection (2000-2017)


Re: X-Men - And the Wolverine Collection (2000-2017)





1.) X-Men 1 (2000)


X-Men.1.2000.1080p.BDRip.x264.DD5.1.CZ


Format : Matroska
Format version : Version 4 / Version 2
File size : 1.57 GiB
Duration : 1h 44mn
Overall bit rate : 2 153 Kbps

Video
ID : 1
Format : AVC
Format/Info : Advanced Video Codec
Format profile : [email protected]
Format settings, CABAC : Yes
Format settings, ReFrames : 5 frames
Codec ID : V_MPEG4/ISO/AVC
Duration : 1h 44mn
Bit rate : 1 705 Kbps
Width : 1 920 pixels
Height : 800 pixels
Display aspect ratio : 2.40:1
Frame rate : 23.976 fps
Color space : YUV
Chroma subsampling : 4:2:0
Bit depth : 8 bits
Scan type : Progressive
Bits/(Pixel*Frame) : 0.046
Stream size : 1.21 GiB (77%)

Audio
ID : 2
Format : AC-3
Format/Info : Audio Coding 3
Mode extension : CM (complete main)
Codec ID : A_AC3
Duration : 1h 44mn
Bit rate mode : Constant
Bit rate : 448 Kbps
Channel(s) : 6 channels
Channel positions : Front: L C R, Side: L R, LFE
Sampling rate : 48.0 KHz
Bit depth : 16 bits
Compression mode : Lossy
Stream size : 334 MiB (21%)
Title : DD 5.1
Language : Czech






2.) X-Men 2 (2003)


X-Men.2.2003.1080p.BDRip.x264.DD5.1.CZ


Format : Matroska
Format version : Version 4 / Version 2
File size : 1.83 GiB
Duration : 2h 13mn
Overall bit rate : 1 953 Kbps

Video
ID : 1
Format : AVC
Format/Info : Advanced Video Codec
Format profile : [email protected]
Format settings, CABAC : Yes
Format settings, ReFrames : 5 frames
Codec ID : V_MPEG4/ISO/AVC
Duration : 2h 13mn
Bit rate : 1 505 Kbps
Width : 1 920 pixels
Height : 800 pixels
Display aspect ratio : 2.40:1
Frame rate : 23.976 fps
Color space : YUV
Chroma subsampling : 4:2:0
Bit depth : 8 bits
Scan type : Progressive
Bits/(Pixel*Frame) : 0.041
Stream size : 1.37 GiB (75%)

Audio
ID : 2
Format : AC-3
Format/Info : Audio Coding 3
Mode extension : CM (complete main)
Codec ID : A_AC3
Duration : 2h 13mn
Bit rate mode : Constant
Bit rate : 448 Kbps
Channel(s) : 6 channels
Channel positions : Front: L C R, Side: L R, LFE
Sampling rate : 48.0 KHz
Bit depth : 16 bits
Compression mode : Lossy
Stream size : 429 MiB (23%)
Title : DD 5.1
Language : Czech






3.) X-Men 3 Poslední vzdor (2006)


X-Men.3.The.Last.Stand.2006.1080p.BDRip.x264.DD5.1.CZ


Format : Matroska
Format version : Version 4 / Version 2
File size : 1.56 GiB
Duration : 1h 44mn
Overall bit rate : 2 152 Kbps

Video
ID : 1
Format : AVC
Format/Info : Advanced Video Codec
Format profile : [email protected]
Format settings, CABAC : Yes
Format settings, ReFrames : 5 frames
Codec ID : V_MPEG4/ISO/AVC
Duration : 1h 44mn
Bit rate : 1 704 Kbps
Width : 1 920 pixels
Height : 800 pixels
Display aspect ratio : 2.40:1
Frame rate : 23.976 fps
Color space : YUV
Chroma subsampling : 4:2:0
Bit depth : 8 bits
Scan type : Progressive
Bits/(Pixel*Frame) : 0.046
Stream size : 1.21 GiB (77%)

Audio
ID : 2
Format : AC-3
Format/Info : Audio Coding 3
Mode extension : CM (complete main)
Codec ID : A_AC3
Duration : 1h 44mn
Bit rate mode : Constant
Bit rate : 448 Kbps
Channel(s) : 6 channels
Channel positions : Front: L C R, Side: L R, LFE
Sampling rate : 48.0 KHz
Bit depth : 16 bits
Compression mode : Lossy
Stream size : 334 MiB (21%)
Title : DD 5.1
Language : Czech

Text
ID : 3
Format : UTF-8
Codec ID : S_TEXT/UTF8
Codec ID/Info : UTF-8 Plain Text
Title : Forced
Language : Czech






4.) X-Men 4 Origins-Wolverine (2009)


X-Men.4.Origins.Wolverine.2009.1080p.BDRip.x264.DD5.1.CZ


Format : Matroska
Format version : Version 4 / Version 2
File size : 1.61 GiB
Duration : 1h 47mn
Overall bit rate : 2 153 Kbps

Video
ID : 1
Format : AVC
Format/Info : Advanced Video Codec
Format profile : [email protected]
Format settings, CABAC : Yes
Format settings, ReFrames : 5 frames
Codec ID : V_MPEG4/ISO/AVC
Duration : 1h 47mn
Bit rate : 1 704 Kbps
Width : 1 920 pixels
Height : 818 pixels
Display aspect ratio : 2.35:1
Frame rate : 23.976 fps
Color space : YUV
Chroma subsampling : 4:2:0
Bit depth : 8 bits
Scan type : Progressive
Bits/(Pixel*Frame) : 0.045
Stream size : 1.25 GiB (77%)

Audio
ID : 2
Format : AC-3
Format/Info : Audio Coding 3
Mode extension : CM (complete main)
Codec ID : A_AC3
Duration : 1h 47mn
Bit rate mode : Constant
Bit rate : 448 Kbps
Channel(s) : 6 channels
Channel positions : Front: L C R, Side: L R, LFE
Sampling rate : 48.0 KHz
Bit depth : 16 bits
Compression mode : Lossy
Stream size : 344 MiB (21%)
Title : DD 5.1
Language : Czech

Text
ID : 3
Format : UTF-8
Codec ID : S_TEXT/UTF8
Codec ID/Info : UTF-8 Plain Text
Title : Forced
Language : Czech






5.) X-Men 5 První třída (2011)


X-Men.5.First.Class.2011.1080p.BDRip.x264.DD5.1.CZ

Format : Matroska
Format version : Version 4 / Version 2
File size : 2.03 GiB
Duration : 2h 11mn
Overall bit rate : 2 205 Kbps

Video
ID : 1
Format : AVC
Format/Info : Advanced Video Codec
Format profile : [email protected]
Format settings, CABAC : Yes
Format settings, ReFrames : 5 frames
Codec ID : V_MPEG4/ISO/AVC
Duration : 2h 11mn
Bit rate : 1 756 Kbps
Width : 1 920 pixels
Height : 816 pixels
Display aspect ratio : 2.35:1
Frame rate : 23.976 fps
Color space : YUV
Chroma subsampling : 4:2:0
Bit depth : 8 bits
Scan type : Progressive
Bits/(Pixel*Frame) : 0.047
Stream size : 1.58 GiB (78%)

Audio
ID : 2
Format : AC-3
Format/Info : Audio Coding 3
Mode extension : CM (complete main)
Codec ID : A_AC3
Duration : 2h 11mn
Bit rate mode : Constant
Bit rate : 448 Kbps
Channel(s) : 6 channels
Channel positions : Front: L C R, Side: L R, LFE
Sampling rate : 48.0 KHz
Bit depth : 16 bits
Compression mode : Lossy
Stream size : 422 MiB (20%)
Title : DD 5.1
Language : Czech

Text
ID : 3
Format : UTF-8
Codec ID : S_TEXT/UTF8
Codec ID/Info : UTF-8 Plain Text
Title : Forced
Language : Czech






6.) X-Men 6 Wolverine (2013)


X-Men.6.Wolverine.2013.1080p.BDRip.x264.DD5.1.CZ

Format : Matroska
Format version : Version 4 / Version 2
File size : 1.79 GiB
Duration : 2h 6mn
Overall bit rate : 2 031 Kbps

Video
ID : 1
Format : AVC
Format/Info : Advanced Video Codec
Format profile : [email protected]
Format settings, CABAC : Yes
Format settings, ReFrames : 4 frames
Codec ID : V_MPEG4/ISO/AVC
Duration : 2h 6mn
Bit rate : 1 710 Kbps
Width : 1 920 pixels
Height : 800 pixels
Display aspect ratio : 2.40:1
Frame rate mode : Variable
Frame rate : 23.976 fps
Color space : YUV
Chroma subsampling : 4:2:0
Bit depth : 8 bits
Scan type : Progressive
Bits/(Pixel*Frame) : 0.046
Stream size : 1.47 GiB (82%)

Audio
ID : 2
Format : AC-3
Format/Info : Audio Coding 3
Mode extension : CM (complete main)
Codec ID : A_AC3
Duration : 2h 6mn
Bit rate mode : Constant
Bit rate : 320 Kbps
Channel(s) : 6 channels
Channel positions : Front: L C R, Side: L R, LFE
Sampling rate : 48.0 KHz
Bit depth : 16 bits
Compression mode : Lossy
Stream size : 289 MiB (16%)
Title : DD 5.1
Language : Czech

Text
ID : 3
Format : UTF-8
Codec ID : S_TEXT/UTF8
Codec ID/Info : UTF-8 Plain Text
Title : Forced
Language : Czech






7.) X-Men 7 Budoucí minulost (2014)


X-Men.7.Days.of.Future.Past.2014.1080p.BDRip.x264.DD5.1.CZ


Format : Matroska
Format version : Version 4 / Version 2
File size : 2.02 GiB
Duration : 2h 11mn
Overall bit rate : 2 199 Kbps

Video
ID : 1
Format : AVC
Format/Info : Advanced Video Codec
Format profile : [email protected]
Format settings, CABAC : Yes
Format settings, ReFrames : 9 frames
Codec ID : V_MPEG4/ISO/AVC
Duration : 2h 11mn
Bit rate : 1 708 Kbps
Width : 1 920 pixels
Height : 800 pixels
Display aspect ratio : 2.40:1
Frame rate : 23.976 fps
Color space : YUV
Chroma subsampling : 4:2:0
Bit depth : 8 bits
Scan type : Progressive
Bits/(Pixel*Frame) : 0.046
Stream size : 1.57 GiB (78%)

Audio
ID : 2
Format : AC-3
Format/Info : Audio Coding 3
Mode extension : CM (complete main)
Codec ID : A_AC3
Duration : 2h 11mn
Bit rate mode : Constant
Bit rate : 448 Kbps
Channel(s) : 6 channels
Channel positions : Front: L C R, Side: L R, LFE
Sampling rate : 48.0 KHz
Bit depth : 16 bits
Compression mode : Lossy
Stream size : 422 MiB (20%)
Title : DD 5.1
Language : Czech

Text
ID : 3
Format : UTF-8
Codec ID : S_TEXT/UTF8
Codec ID/Info : UTF-8 Plain Text
Title : Forced
Language : Czech






8.) X-Men 8 Apokalypsa (2016)


X-Men.8.Apocalypse.2016.1080p.BDRip.x264.DD5.1.CZ


Format : Matroska
Format version : Version 4 / Version 2
File size : 2.46 GiB
Duration : 2h 23mn
Overall bit rate : 2 449 Kbps

Video
ID : 1
Format : AVC
Format/Info : Advanced Video Codec
Format profile : [email protected]
Format settings, CABAC : Yes
Format settings, ReFrames : 5 frames
Codec ID : V_MPEG4/ISO/AVC
Duration : 2h 23mn
Bit rate : 1 999 Kbps
Width : 1 920 pixels
Height : 800 pixels
Display aspect ratio : 2.40:1
Frame rate : 23.976 fps
Color space : YUV
Chroma subsampling : 4:2:0
Bit depth : 8 bits
Scan type : Progressive
Bits/(Pixel*Frame) : 0.054
Stream size : 1.96 GiB (80%)

Audio
ID : 2
Format : AC-3
Format/Info : Audio Coding 3
Mode extension : CM (complete main)
Codec ID : A_AC3
Duration : 2h 23mn
Bit rate mode : Constant
Bit rate : 448 Kbps
Channel(s) : 6 channels
Channel positions : Front: L C R, Side: L R, LFE
Sampling rate : 48.0 KHz
Bit depth : 16 bits
Compression mode : Lossy
Stream size : 461 MiB (18%)
Title : DD 5.1 5.1
Language : Czech

Text
ID : 3
Format : UTF-8
Codec ID : S_TEXT/UTF8
Codec ID/Info : UTF-8 Plain Text
Title : Forced
Language : Czech






9.) X-Men 9 Logan: Wolverine (2017)


X-Men.9.Logan.2017.1080p.BDRip.x264.DD5.1.CZ

Format : Matroska
Format version : Version 4 / Version 2
File size : 3.10 GiB
Duration : 2h 17mn
Overall bit rate : 3 233 Kbps

Video
ID : 1
Format : AVC
Format/Info : Advanced Video Codec
Format profile : [email protected]
Format settings, CABAC : Yes
Format settings, ReFrames : 4 frames
Codec ID : V_MPEG4/ISO/AVC
Duration : 2h 17mn
Bit rate : 2 785 Kbps
Width : 1 920 pixels
Height : 808 pixels
Display aspect ratio : 2.40:1
Frame rate : 23.976 fps
Color space : YUV
Chroma subsampling : 4:2:0
Bit depth : 8 bits
Scan type : Progressive
Bits/(Pixel*Frame) : 0.075
Stream size : 2.61 GiB (84%)

Audio
ID : 2
Format : AC-3
Format/Info : Audio Coding 3
Mode extension : CM (complete main)
Codec ID : A_AC3
Duration : 2h 17mn
Bit rate mode : Constant
Bit rate : 448 Kbps
Channel(s) : 6 channels
Channel positions : Front: L C R, Side: L R, LFE
Sampling rate : 48.0 KHz
Bit depth : 16 bits
Compression mode : Lossy
Stream size : 440 MiB (14%)
Title : AC3 5.1
Language : Czech

Text
ID : 3
Format : UTF-8
Codec ID : S_TEXT/UTF8
Codec ID/Info : UTF-8 Plain Text
Title : Forced
Language : Czech





12 čer 2018, 09:44
Profil
Zobrazit příspěvky za předchozí:  Seřadit podle  
Odeslat nové téma Odpovědět na téma  [ Příspěvků: 2 ] 

Všechny časy jsou v UTC + 1 hodina


Nemůžete zakládat nová témata v tomto fóru
Nemůžete odpovídat v tomto fóru
Nemůžete upravovat své příspěvky v tomto fóru
Nemůžete mazat své příspěvky v tomto fóru
Nemůžete přikládat soubory v tomto fóru









StahovaniZaSMS Pizza Modena MP3 free download