fastshare
X-Men Origins: Wolverine (2009)
Vypnout statistiky
KATEGORIEPOSLEDNÍ PŘÍSPĚVKYPOSLEDNÍ OZNÁMENÍSTATISTIKY UŽIVATELE
Nick: Anonymous
Příspěvků: 3361
Hodnost: Warman
Varování: 0
---
Právě je 18 říj 2018, 02:21





Všechny časy jsou v UTC + 1 hodina


Pravidla fóra







Odeslat nové téma Odpovědět na téma  [ Příspěvků: 7 ] 
 X-Men Origins: Wolverine (2009) 
Autor Zpráva
Major
Major
Uživatelský avatar

Registrován: 24 úno 2009, 10:16
Příspěvky: 342
Bydliště: Los Angeles
Příspěvek X-Men Origins: Wolverine (2009)

X-Men Origins: Wolverine

X-Men Origins: Wolverine (2009)

http://www.csfd.cz/film/224880
http://www.imdb.com/title/tt0458525/

Akčný / Fantasy / Sci-Fi / Thriller
USA / Austrálie / Kanada, 2009

Režie: Gavin Hood
Hrají: Hugh Jackman, Liev Schreiber, Danny Huston, Lynn Collins, Daniel Henney, Ryan Reynolds, Taylor Kitsch, Will i Am, Dominic Monaghan, Kevin Durand, Tahyna Tozzi, Scott Adkins, Alice Parkinson, Panou, Patrick Stewart, Tim Pocock


Film X-Men Origins: Wolverine je dějově zasazen na samý počátek ságy o známých mutantech X-Menech. Hugh Jackman se vrací v roli, která z něj udělala filmovou hvězdu; v roli Logana neboli nelítostného mutanta Wolverina obdařeného zázračnou schopností regenerace a také adamantiovými drápy na rukou. Zatímco tři předchozí filmy byly zasazeny do nepříliš vzdálené budoucnosti, hlavní část nového příběhu se odehrává v 70. letech minulého století. Děj se vrací ke počátkům Wolverinovy hrdinské kariéry i tragickým událostem jeho života, z nichž jej nejvíce poznamená smrt osudové lásky Kayle Silverfox. Její smrt způsobí Wolverinovo zapletení s tajným vládním vojenským programem Weapon X. S projektem, jenž mu navždy zcela změní život. Pod velením Williama Strykera je zformována tajná vojenská jednotka Team X složená výhradně z mutantů. Jedním z nich je také Victor Creed alias Sabretooth, nezkrotná bytost s neuvěřitelnou sílou, s nímž Wolverine musí svést svůj nejtěžší souboj.


Jazyk: Český
Release: X-Men.Origins.Wolverine.2009.DVDRip.XviD.CZ-WoodoX / X-Men.Origins.Wolverine.2009.DVDRip.XviD.CZ-NoName

X-Men.Origins.Wolverine.2009.DVDRip.XviD.CZ-WoodoX

Citace:
General : C:\X-Men.Origins.Wolverine.2009.DVDRip.XviD.CZ-WoodoX.of.UCU.avi
Format : AVI at 951 Kbps
Length : 700 MiB for 1h 42mn 56s 360ms

Video #0 : MPEG-4 Visual at 811 Kbps
Aspect : 640 x 272 (2.353) at 25.000 fps

Audio #0 : MPEG Audio at 127 Kbps
Infos : 2 kanály, 48,0 KHz

DELETED

X-Men.Origins.Wolverine.2009.DVDRip.XviD.CZ-NoName

Citace:
General : C:\X-Men.Origins.Wolverine.2009.DVDRip.XviD.CZ-NoName\xmen2009-nn.avi
Format : AVI at 1 901 Kbps
Length : 1 GiB for 1h 42mn 56s 360ms

Video #0 : MPEG-4 Visual at 1 762 Kbps
Aspect : 640 x 272 (2.353) at 25.000 fps

Audio #0 : MPEG Audio at 127 Kbps
Infos : 2 kanály, 48,0 KHz


Share-Rapid.com

Uloz.to


... Enjoy with WoodoX of unique crew uploaders uploads !!!


Naposledy upravil ladan dne 08 led 2013, 03:22, celkově upraveno 4
Smazány nefunkční odkazy a obrázky


26 zář 2009, 20:02
Profil
Captain
Captain

Registrován: 30 čer 2008, 10:48
Příspěvky: 280
Příspěvek Re: X-Men Origins: Wolverine (2009)

X-Men Origins: Wolverine (2009) CZ DVD-rip

Re: X-Men Origins: Wolverine (2009)

ČSFD:
http://www.csfd.cz/film/224880-xmen-origins-wolverine/

__.__
Akční / Fantasy / Sci-Fi / Thriller
USA / Austrálie / Kanada, 2009, 107 min

Režie: Gavin Hood
Hrají: Hugh Jackman, Liev Schreiber, Danny Huston, Lynn Collins, Daniel Henney, Ryan Reynolds, Taylor Kitsch, Will i Am, Dominic Monaghan, Kevin Durand, Tahyna Tozzi, Scott Adkins, Alice Parkinson, Panou, Patrick Stewart, Tim Pocock

Obsah:

Po trojici snímků z provenience Briana Singera a Bretta Ratnera, přináší Gavin Hood (TSOTSI) další x-menovský příběh, který nás tentokrát blíže seznámí s temperamentním libertinem obdařeným schopností regenerace - mutantem Wolverinem. Jak už sám název napovídá, vrátíme se k samotným počátkům jeho "hrdinské" kariéry. Přesněji do 60. let, kdy se zúčastnil tajného vládního projektu s názvem Weapon X - projektu, jenž mu od základů změnil život. A kde se vyskytuje Wolverin, tam je rozumné očekávat i nemilosrdného "vojcla" Williama Strikera, který se může považovat za jeho duchovně-adamantiového otce a věčnou Nemesis. Wolverine však ...

Parametre:
Format : AVI at 951 Kbps
Length : 700 MiB for 1h 42mn 56s 400ms

Video #0 : xvid at 810 Kbps
Aspect : 640 x 272 (2.353) at 25.000 fps

Audio #0 : MPEG Audio at 128 Kbps
Infos : 2 kanály, 48,0 KHz

)..(
Share-rapid


Naposledy upravil ladan dne 08 led 2013, 03:39, celkově upraveno 3
Smazány nefunkční odkazy a obrázky


26 zář 2009, 22:39
Profil
V.I.P.
V.I.P.
Uživatelský avatar

Registrován: 30 srp 2006, 08:57
Příspěvky: 1566
Bydliště: Warcenter
Příspěvek X-Men Origins: Wolverine (2009)


_________________


Naposledy upravil ladan dne 08 led 2013, 03:46, celkově upraveno 1
Smazány nefunkční odkazy a obrázky


16 říj 2009, 13:12
Profil
Private 2 nd class
Private 2 nd class
Uživatelský avatar

Registrován: 01 pro 2009, 06:51
Příspěvky: 45
Bydliště: Czech republic - Bruntál
Příspěvek Re: X-Men Origins: Wolverine (2009)

X-Men Origins: Wolverine / X-Men Origins: Wolverine (2009)

Re: X-Men Origins: Wolverine (2009)

Citace:
Film X-Men Origins: Wolverine je dějově zasazen na samý počátek ságy o známých mutantech X-Menech. Hugh Jackman se vrací v roli, která
z něj udělala filmovou hvězdu; v roli Logana neboli nelítostného mutanta Wolverina obdařeného zázračnou schopností regenerace a také
adamantiovými drápy na rukou.
Zatímco tři předchozí filmy byly zasazeny do nepříliš vzdálené budoucnosti, hlavní část nového příběhu se odehrává v 70. letech
minulého století. Děj se vrací ke počátkům Wolverinovy hrdinské kariéry i tragickým událostem jeho života, z nichž jej nejvíce
poznamená smrt osudové lásky Kayle Silverfox. Její smrt způsobí Wolverinovo zapletení s tajným vládním vojenským programem Weapon X. S
projektem, jenž mu navždy zcela změní život. Pod velením Williama Strykera (Danny Huston) je zformována tajná vojenská jednotka Team X
složená výhradně z mutantů. Jedním z nich je také Victor Creed alias Sabretooth (Liev Schreiber), nezkrotná bytost s neuvěřitelnou
sílou, s nímž musí Wolverine svést svůj nejtěžší souboj.


CSFD:


Info o videu:
Citace:
Dubing: Český
Titulky: Nejsou
Typ Souboru: .avi
Doba trvání: 1:42:56
Šířka rámečku: 640
Výška rámečku: 272
Rychlost dat: 823kbps
Celková přenosová rychlost: 950kbps
Frekvence snímků: 25snímků/sekundu
Přenosová rychlost zvuku: 126kbps
Zvukové kanály: 2(stereo)
Vzorkovací frekvence zvuku: 48kHz


Náhled:
Re: X-Men Origins: Wolverine (2009)

Download:

Share-rapid:


Naposledy upravil ladan dne 14 pro 2013, 23:40, celkově upraveno 2
Smazány nefunkční odkazy


03 srp 2011, 20:43
Profil
Private 1 st class
Private 1 st class

Registrován: 15 črc 2010, 17:42
Příspěvky: 19
Příspěvek Re: X-Men Origins: Wolverine (2009)

X-Men Origins: Wolverine (2009) CZ
Re: X-Men Origins: Wolverine (2009)

CSFD:


INFO:
Citace:
Audio
ID: 1
Format: MPEG Audio
Format version: Version 1
Format profile: Layer 3
Mode: Joint stereo
Mode extension: MS Stereo
Codec ID: 55
Codec ID/Hint: MP3
Duration: 1h 42mn
Bit rate mode: Variable
Bit rate: 128 Kbps
Channel(s): 2 channels
Sampling rate: 48.0 KHz
Compression mode: Lossy
Stream size: 93.4 MiB (13%)
Alignment: Aligned on interleaves
Interleave, duration: 24 ms (0.60 video frame)
Interleave, preload duration: 145 ms
Video
ID: 0
Format: MPEG-4 Visual
Format profile: Advanced [email protected]
Format settings, BVOP: 2
Format settings, QPel: No
Format settings, GMC: No warppoints
Format settings, Matrix: Default (H.263)
Muxing mode: Packed bitstream
Codec ID: XVID
Codec ID/Hint: XviD
Duration: 1h 42mn
Bit rate: 811 Kbps
Width: 640 pixels
Height: 272 pixels
Display aspect ratio: 2.35:1
Frame rate: 25.000 fps
Color space: YUV
Chroma subsampling: 4:2:0
Bit depth: 8 bits
Scan type: Progressive
Compression mode: Lossy
Bits/(Pixel*Frame): 0.186
Stream size: 597 MiB (85%)
Writing library : XviD 1.1.2 (UTC 2006-11-01)


Velikost: 700 MB

Download Turbobit:



12 dub 2013, 18:00
Profil
Private 2 nd class
Private 2 nd class

Registrován: 23 dub 2009, 08:22
Příspěvky: 43
Příspěvek Re: X-Men Origins: Wolverine (2009)

X-Men.Origins.Wolverine.2009.DVDRip.XviD.CZ

__.__






)..(

Re: X-Men Origins: Wolverine (2009)


Re: X-Men Origins: Wolverine (2009)

_________________
Jsou-li titulky, pak v raru.
Jsou-li rary, pak bez hesla.


10 pro 2013, 08:50
Profil
Major
Major

Registrován: 30 pro 2007, 17:16
Příspěvky: 348
Příspěvek Re: X-Men Origins: Wolverine (2009)

X-Men Origins: Wolverine (2009)
Audio: CZ

Re: X-Men Origins: Wolverine (2009)



Citace:
Format : AVI
File size : 700 MiB
Duration : 1h 42mn
Overall bit rate mode : Variable
Overall bit rate : 951 Kbps

Video
Format : MPEG-4 Visual
Codec ID : XVID
Duration : 1h 42mn
Bit rate : 811 Kbps
Width : 640 pixels
Height : 272 pixels
Display aspect ratio : 2.35:1
Frame rate : 25.000 fps
Color space : YUV
Chroma subsampling : 4:2:0
Bit depth : 8 bits
Scan type : Progressive
Compression mode : Lossy
Bits/(Pixel*Frame) : 0.186
Stream size : 597 MiB (85%)

Audio
Format : MPEG Audio
Format version : Version 1
Format profile : Layer 3
Mode : Joint stereo
Mode extension : MS Stereo
Duration : 1h 42mn
Bit rate mode : Variable
Bit rate : 128 Kbps
Channel(s) : 2 channels
Sampling rate : 48.0 KHz
Compression mode : Lossy
Stream size : 93.4 MiB (13%)
Alignment : Aligned on interleaves
Interleave, duration : 24 ms (0.60 video frame)
Interleave, preload duration : 145 ms


Fastshare


15 říj 2014, 22:00
Profil
Zobrazit příspěvky za předchozí:  Seřadit podle  
Odeslat nové téma Odpovědět na téma  [ Příspěvků: 7 ] 

Všechny časy jsou v UTC + 1 hodina


Nemůžete zakládat nová témata v tomto fóru
Nemůžete odpovídat v tomto fóru
Nemůžete upravovat své příspěvky v tomto fóru
Nemůžete mazat své příspěvky v tomto fóru
Nemůžete přikládat soubory v tomto fóru









StahovaniZaSMS Pizza Modena MP3 free download