fastshare
Já nejsem já (1985)
Vypnout statistiky
KATEGORIEPOSLEDNÍ PŘÍSPĚVKYPOSLEDNÍ OZNÁMENÍSTATISTIKY UŽIVATELE
Nick: Anonymous
Příspěvků: 3361
Hodnost: Warman
Varování: 0
---
Právě je 15 lis 2018, 09:57





Všechny časy jsou v UTC + 1 hodina


Pravidla fóra







Odeslat nové téma Odpovědět na téma  [ Příspěvků: 2 ] 
 Já nejsem já (1985) 
Autor Zpráva
Sergeant
Sergeant

Registrován: 29 srp 2008, 08:28
Příspěvky: 110
Příspěvek Já nejsem já (1985)

Já nejsem já (1985)

Já nejsem já (1985)




Komedie / Mysteriózní
Československo, 1985, 90 min

Režie: Václav Vorlíček
Hrají: Petr Nárožný, Oldřich Kaiser, Eva Jakoubková, Jana Švandová, Ondřej Havelka, Bronislav Poloczek, Miroslav Zounar, Jitka Asterová, Barbora Štěpánová, Květa Fialová, Jana Kasanová, Iva Hüttnerová, Jana Andresíková, Zdena Hadrbolcová, Lenka Machoninová, Zuzana Talpová, Věra Kalendová, Ladislav Potměšil, Jiří Lábus, Vlasta Žehrová, Oldřich Velen, Jana Altmannová, Ivana Vávrová


Situační komedie Václava Vorlíčka vychází z životní reality roku 1985, ozvláštněné klíčovým pohádkovým motivem. Námět Václava Nývlta těží z častého nesplnitelného přání mnoha lidí, kteří by v nejrůznějších situacích ze všeho nejraději byli někým jiným. Dvěma hrdinům filmového příběhu - slušnému, leč sucharskému inženýru Zárubovi, a sňatkovému podvodníkovi Majerovi - se působením tajemných sil Měsíce toto přání splní. Oba muži si vymění podobu, což ovšem ostře kontrastuje s jejich nezměněnými charaktery a hlasy. Nepochopitelná záměna se přirozeně stává zdrojem mnoha komických zápletek a situací. Happy end pak ústí do typicky pohádkového spravedlivého potrestání darebáka a zadostiučinění, kterého se dostane poctivému člověku. Nenáročná komedie s morálním podtextem se opírá především o herecké výkony dvou odlišných komiků Petra Nárožného a Oldřicha Kaisra.

Citace:
Format : AVI
Format/Info : Audio Video Interleave
File size : 700 MiB
Duration : 1h 30mn
Overall bit rate : 1 083 Kbps
Writing application : VirtualDubMod 1.5.4.1 (build 2178/release)
Writing library : VirtualDubMod build 2178/release
Video #0
ID : 0
Format : MPEG-4 Visual
Format profile : [email protected]
Format settings, BVOP : Yes
Format settings, QPel : No
Format settings, GMC : No warppoints
Format settings, Matrix : Custom
Codec ID : XVID
Codec ID/Hint : XviD
Duration : 1h 30mn
Bit rate : 967 Kbps
Width : 512 pixels
Height : 384 pixels
Display aspect ratio : 4:3
Frame rate : 25.000 fps
Resolution : 24 bits
Colorimetry : 4:2:0
Scan type : Progressive
Bits/(Pixel*Frame) : 0.197
Stream size : 625 MiB (89%)
Writing library : XviD 1.2.1 (UTC 2008-12-04)
Audio #1
ID : 1
Format : MPEG Audio
Format version : Version 1
Format profile : Layer 3
Codec ID : 55
Codec ID/Hint : MP3
Duration : 1h 30mn
Bit rate mode : Variable
Bit rate : 104 Kbps
Nominal bit rate : 128 Kbps
Channel(s) : 2 channels
Sampling rate : 48.0 KHz
Resolution : 16 bits
Stream size : 66.9 MiB (10%)
Alignment : Aligned on interleaves
Interleave, duration : 24 ms (0.60 video frame)
Interleave, preload duration : 478 ms
Writing library : LAME3.97
Encoding settings : -m j -V 4 -q 2 -lowpass 17 --abr 128
Language : Czech


Já nejsem já (1985)


Já nejsem já (1985)


Já nejsem já (1985)

_________________
Pokuď bude nějaký problém s linkama napište mi SZ.Na dotazy v tématech neodpovídam.

Koupím kódy od CocaColy, Fanty a Sprite za cenu 4GB kreditu na Czshare za kód


Naposledy upravil Shelby GT500 dne 18 srp 2012, 22:51, celkově upraveno 2
Smazány mrtvé linky.


22 bře 2010, 18:55
Profil
Zobrazit příspěvky za předchozí:  Seřadit podle  
Odeslat nové téma Odpovědět na téma  [ Příspěvků: 2 ] 

Všechny časy jsou v UTC + 1 hodina


Nemůžete zakládat nová témata v tomto fóru
Nemůžete odpovídat v tomto fóru
Nemůžete upravovat své příspěvky v tomto fóru
Nemůžete mazat své příspěvky v tomto fóru
Nemůžete přikládat soubory v tomto fóru









StahovaniZaSMS Pizza Modena MP3 free download